Home / War for the Planet of the Apes 2017 BRRip XviD AC3-EVO

War for the Planet of the Apes 2017 BRRip XviD AC3-EVO

date added 1 week ago   
post views 52 views   
torrent id ID: 444810

Torrent Description: This is a New Way to Download The Movie War for the Planet of the Apes 2017 BRRip XviD AC3-EVO Movie Torrent in HD Quality. War for the Planet of the Apes 2017 BRRip XviD AC3-EVO DVD Print, 1080p, 720p and Bluray. If you facing any problem Downloading War for the Planet of the Apes 2017 BRRip XviD AC3-EVO Movie Torrent. Scroll Down to Get Download Link.

GRAVE dvdrip | Çok Yakında | Wayne Morris
  • Category : Movies
  • Type : Divx/Xvid
  • Language : English
  • Total size : 1.5 GB
  • Uploaded By : showstopper-showstopper

War.for.the.Planet.of.the.Apes.2017.BRRip.XviD.AC3-EVO

ImDb: http://www.imdb.com/title/tt3450958



Complete name : War.for.the.Planet.of.the.Apes.2017.BRRip.XviD.AC3-EVO.avi
Format : AVI
Format/Info : Audio Video Interleave
Format profile : OpenDML
Format settings : rec
File size : 1.50 GiB
Duration : 2 h 20 min
Overall bit rate : 1 536 kb/s
Writing application : AVI-Mux GUI 1.17.8.3, Feb 16 201019:42:50

Video
ID : 0
Format : MPEG-4 Visual
Format profile : Advanced [email protected]
Format settings, BVOP : 2
Format settings, QPel : No
Format settings, GMC : No warppoints
Format settings, Matrix : Default (H.263)
Muxing mode : Packed bitstream
Codec ID : XVID
Codec ID/Hint : XviD
Duration : 2 h 20 min
Bit rate : 1 083 kb/s
Width : 720 pixels
Height : 302 pixels
Display aspect ratio : 2.40:1
Frame rate : 23.976 (24000/1001) FPS
Color space : YUV
Chroma subsampling : 4:2:0
Bit depth : 8 bits
Scan type : Progressive
Compression mode : Lossy
Bits/(Pixel*Frame) : 0.208
Stream size : 1.06 GiB (70%)
Writing library : XviD 66

Audio
ID : 1
Format : AC-3
Format/Info : Audio Coding 3
Format settings, Endianness : Big
Codec ID : 2000
Duration : 2 h 20 min
Bit rate mode : Constant
Bit rate : 448 kb/s
Channel(s) : 6 channels
Channel positions : Front: L C R, Side: L R, LFE
Sampling rate : 48.0 kHz
Frame rate : 31.250 FPS (1536 spf)
Bit depth : 16 bits
Compression mode : Lossy
Stream size : 449 MiB (29%)
Alignment : Aligned on interleaves
Interleave, duration : 64 ms (1.53 video frames)
Interleave, preload duration : 192 ms
Service kind : Complete Main






Click To View Screenshot

Click To View Screenshot

Click To View Screenshot

DOWNLOAD LINK

War for the Planet of the Apes 2017 BRRip XviD AC3-EVO War for the Planet of the Apes 2017 BRRip XviD AC3-EVO


Latest Top Searches of peoples:

Download War for the Planet of the Apes 2017 BRRip XviD AC3-EVO Full Movie Torrent HD Quality.

Torrent War for the Planet of the Apes 2017 BRRip XviD AC3-EVO Download

Download Free War for the Planet of the Apes 2017 BRRip XviD AC3-EVO Torrent

Download War for the Planet of the Apes 2017 BRRip XviD AC3-EVO Torrent - Kickass Torrents.

War for the Planet of the Apes 2017 BRRip XviD AC3-EVO Download Torrent - Extratorrent.

War for the Planet of the Apes 2017 BRRip XviD AC3-EVO Downlaod - torrentz.in

Download War for the Planet of the Apes 2017 BRRip XviD AC3-EVO Torrent - bitsnoop..

Torrent War for the Planet of the Apes 2017 BRRip XviD AC3-EVO Download - Nyaa.se

War for the Planet of the Apes 2017 BRRip XviD AC3-EVO HD Full Download Free 2017 - Welltorrent.com.



People also Search for:

  • • Download War for the Planet of the Apes 2017 BRRip XviD AC3-EVO Torrent 1080p
  • • Torrent War for the Planet of the Apes 2017 BRRip XviD AC3-EVO Download DVDRip
  • • Download War for the Planet of the Apes 2017 BRRip XviD AC3-EVO Torrent 720p
  • • War for the Planet of the Apes 2017 BRRip XviD AC3-EVO High Resolution Torrent Result
  • • Download War for the Planet of the Apes 2017 BRRip XviD AC3-EVO Bluray Torrent
  • • Xvid Torrent War for the Planet of the Apes 2017 BRRip XviD AC3-EVO Download
  • • Download War for the Planet of the Apes 2017 BRRip XviD AC3-EVO Torrent Full HD
  • • Torrent War for the Planet of the Apes 2017 BRRip XviD AC3-EVO HDRip Download
  • • Download War for the Planet of the Apes 2017 BRRip XviD AC3-EVO Torrent Multi Language
  • • War for the Planet of the Apes 2017 BRRip XviD AC3-EVO Download Multi-Subs Torrent


Tagged with:

Related Movies Torrents