Home / War for the Planet of the Apes 2017 720p BRRip X264 AC3-EVO

War for the Planet of the Apes 2017 720p BRRip X264 AC3-EVO

date added 1 week ago   
post views 52 views   
torrent id ID: 444813

Torrent Description: This is a New Way to Download The Movie War for the Planet of the Apes 2017 720p BRRip X264 AC3-EVO Movie Torrent in HD Quality. War for the Planet of the Apes 2017 720p BRRip X264 AC3-EVO DVD Print, 1080p, 720p and Bluray. If you facing any problem Downloading War for the Planet of the Apes 2017 720p BRRip X264 AC3-EVO Movie Torrent. Scroll Down to Get Download Link.

Ken Watanabe | Quantico saison 1 épisode 4 | Kryminalne
  • Category : Movies
  • Type : HD
  • Language : English
  • Total size : 3.1 GB
  • Uploaded By : showstopper-showstopper

War.for.the.Planet.of.the.Apes.2017.720p.BRRip.X264.AC3-EVO

ImDb: http://www.imdb.com/title/tt3450958



Complete name : War.for.the.Planet.of.the.Apes.2017.720p.BRRip.X264.AC3-EVO.mkv
Format : Matroska
Format version : Version 4 / Version 2
File size : 3.09 GiB
Duration : 2 h 20 min
Overall bit rate : 3 152 kb/s
Movie name : EVO
Encoded date : UTC 2017-10-12 09:39:48
Writing application : mkvmerge v6.7.0 ('Back to the Ground') 64bit built on Jan 8 2014 15:10:52
Writing library : libebml v1.3.0 + libmatroska v1.4.1

Video
ID : 1
Format : AVC
Format/Info : Advanced Video Codec
Format profile : [email protected]
Format settings, CABAC : Yes
Format settings, ReFrames : 4 frames
Codec ID : V_MPEG4/ISO/AVC
Duration : 2 h 20 min
Bit rate : 2 700 kb/s
Width : 1 280 pixels
Height : 536 pixels
Display aspect ratio : 2.40:1
Frame rate mode : Constant
Frame rate : 23.976 (24000/1001) FPS
Color space : YUV
Chroma subsampling : 4:2:0
Bit depth : 8 bits
Scan type : Progressive
Bits/(Pixel*Frame) : 0.164
Stream size : 2.59 GiB (84%)
Writing library : x264 core 130 r2273 b3065e6
Encoding settings : cabac=1 / ref=1 / deblock=1:0:0 / analyse=0x3:0x113 / me=hex / subme=2 / psy=1 / psy_rd=1.00:0.00 / mixed_ref=0 / me_range=16 / chroma_me=1 / trellis=0 / 8x8dct=1 / cqm=0 / deadzone=21,11 / fast_pskip=1 / chroma_qp_offset=0 / threads=6 / lookahead_threads=2 / sliced_threads=0 / nr=0 / decimate=1 / interlaced=0 / bluray_compat=0 / constrained_intra=0 / bframes=3 / b_pyramid=2 / b_adapt=1 / b_bias=0 / direct=1 / weightb=1 / open_gop=0 / weightp=1 / keyint=240 / keyint_min=24 / scenecut=40 / intra_refresh=0 / rc_lookahead=10 / rc=abr / mbtree=1 / bitrate=2700 / ratetol=1.0 / qcomp=0.60 / qpmin=0 / qpmax=69 / qpstep=4 / vbv_maxrate=62500 / vbv_bufsize=78125 / nal_hrd=none / ip_ratio=1.40 / aq=1:1.00
Language : English
Default : Yes
Forced : No
Color range : Limited
Color primaries : BT.709
Transfer characteristics : BT.709
Matrix coefficients : BT.709

Audio
ID : 2
Format : AC-3
Format/Info : Audio Coding 3
Format settings, Endianness : Big
Codec ID : A_AC3
Duration : 2 h 20 min
Bit rate mode : Constant
Bit rate : 448 kb/s
Channel(s) : 6 channels
Channel positions : Front: L C R, Side: L R, LFE
Sampling rate : 48.0 kHz
Frame rate : 31.250 FPS (1536 spf)
Bit depth : 16 bits
Compression mode : Lossy
Stream size : 449 MiB (14%)
Language : English
Service kind : Complete Main
Default : Yes
Forced : No

Text #1
ID : 3
Format : UTF-8
Codec ID : S_TEXT/UTF8
Codec ID/Info : UTF-8 Plain Text
Title : Full
Language : English
Default : No
Forced : No

Text #2
ID : 4
Format : UTF-8
Codec ID : S_TEXT/UTF8
Codec ID/Info : UTF-8 Plain Text
Language : English
Default : Yes
Forced : Yes






Click To View Screenshot

Click To View Screenshot

Click To View Screenshot

DOWNLOAD LINK

War for the Planet of the Apes 2017 720p BRRip X264 AC3-EVO War for the Planet of the Apes 2017 720p BRRip X264 AC3-EVO


Latest Top Searches of peoples:

Download War for the Planet of the Apes 2017 720p BRRip X264 AC3-EVO Full Movie Torrent HD Quality.

Torrent War for the Planet of the Apes 2017 720p BRRip X264 AC3-EVO Download

Download Free War for the Planet of the Apes 2017 720p BRRip X264 AC3-EVO Torrent

Download War for the Planet of the Apes 2017 720p BRRip X264 AC3-EVO Torrent - Kickass Torrents.

War for the Planet of the Apes 2017 720p BRRip X264 AC3-EVO Download Torrent - Extratorrent.

War for the Planet of the Apes 2017 720p BRRip X264 AC3-EVO Downlaod - torrentz.in

Download War for the Planet of the Apes 2017 720p BRRip X264 AC3-EVO Torrent - bitsnoop..

Torrent War for the Planet of the Apes 2017 720p BRRip X264 AC3-EVO Download - Nyaa.se

War for the Planet of the Apes 2017 720p BRRip X264 AC3-EVO HD Full Download Free 2017 - Welltorrent.com.



People also Search for:

  • • Download War for the Planet of the Apes 2017 720p BRRip X264 AC3-EVO Torrent 1080p
  • • Torrent War for the Planet of the Apes 2017 720p BRRip X264 AC3-EVO Download DVDRip
  • • Download War for the Planet of the Apes 2017 720p BRRip X264 AC3-EVO Torrent 720p
  • • War for the Planet of the Apes 2017 720p BRRip X264 AC3-EVO High Resolution Torrent Result
  • • Download War for the Planet of the Apes 2017 720p BRRip X264 AC3-EVO Bluray Torrent
  • • Xvid Torrent War for the Planet of the Apes 2017 720p BRRip X264 AC3-EVO Download
  • • Download War for the Planet of the Apes 2017 720p BRRip X264 AC3-EVO Torrent Full HD
  • • Torrent War for the Planet of the Apes 2017 720p BRRip X264 AC3-EVO HDRip Download
  • • Download War for the Planet of the Apes 2017 720p BRRip X264 AC3-EVO Torrent Multi Language
  • • War for the Planet of the Apes 2017 720p BRRip X264 AC3-EVO Download Multi-Subs Torrent


Tagged with:

Related Movies Torrents