Home / The Taking of Pelham 123 2009 10bit hevc-d3g

The Taking of Pelham 123 2009 10bit hevc-d3g

date added 6 days ago   
post views 19 views   
torrent id ID: 444854

Torrent Description: This is a New Way to Download The Movie The Taking of Pelham 123 2009 10bit hevc-d3g Movie Torrent in HD Quality. The Taking of Pelham 123 2009 10bit hevc-d3g DVD Print, 1080p, 720p and Bluray. If you facing any problem Downloading The Taking of Pelham 123 2009 10bit hevc-d3g Movie Torrent. Scroll Down to Get Download Link.

direct+download | Madam Secretary 4x2 | Lapor DMCA
  • Category : Movies
  • Type : HD
  • Language : English
  • Total size : 5.4 GB
  • Uploaded By : showstopper-showstopper

The Taking of Pelham 123 2009 10bit hevc-d3g.

ImDb: http://www.imdb.com/title/tt1111422



Complete name : The Taking of Pelham 123 2009 BluRay 10Bit 1080p Dts-HD Ma5.1 H265-d3g.mkv
Format : Matroska
Format version : Version 2
File size : 5.44 GiB
Duration : 1 h 45 min
Overall bit rate : 7 355 kb/s
Movie name : The Taking of Pelham 123 2009 BluRay 10Bit 1080p DD5.1 H265-d3g
Encoded date : UTC 2017-10-08 15:46:53
Writing application : DVDFab 10.0.6.2
Writing library : libebml v1.3.4 + libmatroska v1.4.5

Video
ID : 1
Format : HEVC
Format/Info : High Efficiency Video Coding
Format profile : Main [email protected]@Main
Codec ID : V_MPEGH/ISO/HEVC
Duration : 1 h 45 min
Bit rate : 3 694 kb/s
Width : 1 920 pixels
Height : 800 pixels
Display aspect ratio : 2.40:1
Frame rate mode : Constant
Frame rate : 23.976 (24000/1001) FPS
Color space : YUV
Chroma subsampling : 4:2:0
Bit depth : 10 bits
Bits/(Pixel*Frame) : 0.100
Stream size : 2.73 GiB (50%)
Default : Yes
Forced : No
Color range : Limited
Color primaries : BT.709
Transfer characteristics : BT.709
Matrix coefficients : BT.709

Audio
ID : 2
Format : DTS
Format/Info : Digital Theater Systems
Format profile : MA / Core
Mode : 16
Format settings, Endianness : Big
Codec ID : A_DTS
Duration : 1 h 45 min
Bit rate mode : Variable / Constant
Bit rate : 3 608 kb/s / 1 509 kb/s
Channel(s) : 6 channels
Channel positions : Front: L C R, Side: L R, LFE
Sampling rate : 48.0 kHz
Frame rate : 93.750 FPS (512 spf)
Bit depth : 24 bits
Compression mode : Lossless / Lossy
Stream size : 2.67 GiB (49%)
Language : English
Default : Yes
Forced : No

Text #1
ID : 3
Format : VobSub
Codec ID : S_VOBSUB
Codec ID/Info : Picture based subtitle format used on DVDs
Duration : 1 h 44 min
Bit rate : 11.9 kb/s
Count of elements : 1416
Stream size : 8.83 MiB (0%)
Language : English
Default : No
Forced : No

Text #2
ID : 4
Format : VobSub
Codec ID : S_VOBSUB
Codec ID/Info : Picture based subtitle format used on DVDs
Duration : 1 h 45 min
Bit rate : 19.0 kb/s
Count of elements : 1925
Stream size : 14.3 MiB (0%)
Language : English
Default : No
Forced : No

Text #3
ID : 5
Format : VobSub
Codec ID : S_VOBSUB
Codec ID/Info : Picture based subtitle format used on DVDs
Duration : 1 h 45 min
Bit rate : 19.7 kb/s
Count of elements : 2012
Stream size : 14.8 MiB (0%)
Language : English
Default : No
Forced : No

Menu
00:00:00.000 : en:(01)00:00:00:000
00:07:10.346 : en:(02)00:07:10:346
00:12:56.192 : en:(03)00:12:56:192
00:18:20.682 : en:(04)00:18:20:682
00:24:19.833 : en:(05)00:24:19:833
00:30:08.556 : en:(06)00:30:08:556
00:36:33.691 : en:(07)00:36:33:691
00:42:26.794 : en:(08)00:42:26:794
00:48:44.212 : en:(09)00:48:44:212
00:54:05.450 : en:(10)00:54:05:450
01:00:23.286 : en:(11)01:00:23:286
01:07:12.570 : en:(12)01:07:12:570
01:12:07.281 : en:(13)01:12:07:281
01:20:04.716 : en:(14)01:20:04:716
01:25:28.414 : en:(15)01:25:28:414
01:32:53.568 : en:(16)01:32:53:568






Click To View Screenshot

Click To View Screenshot

Click To View Screenshot

DOWNLOAD LINK

The Taking of Pelham 123 2009 10bit hevc-d3g The Taking of Pelham 123 2009 10bit hevc-d3g


Latest Top Searches of peoples:

Download The Taking of Pelham 123 2009 10bit hevc-d3g Full Movie Torrent HD Quality.

Torrent The Taking of Pelham 123 2009 10bit hevc-d3g Download

Download Free The Taking of Pelham 123 2009 10bit hevc-d3g Torrent

Download The Taking of Pelham 123 2009 10bit hevc-d3g Torrent - Kickass Torrents.

The Taking of Pelham 123 2009 10bit hevc-d3g Download Torrent - Extratorrent.

The Taking of Pelham 123 2009 10bit hevc-d3g Downlaod - torrentz.in

Download The Taking of Pelham 123 2009 10bit hevc-d3g Torrent - bitsnoop..

Torrent The Taking of Pelham 123 2009 10bit hevc-d3g Download - Nyaa.se

The Taking of Pelham 123 2009 10bit hevc-d3g HD Full Download Free 2017 - Welltorrent.com.



People also Search for:

  • • Download The Taking of Pelham 123 2009 10bit hevc-d3g Torrent 1080p
  • • Torrent The Taking of Pelham 123 2009 10bit hevc-d3g Download DVDRip
  • • Download The Taking of Pelham 123 2009 10bit hevc-d3g Torrent 720p
  • • The Taking of Pelham 123 2009 10bit hevc-d3g High Resolution Torrent Result
  • • Download The Taking of Pelham 123 2009 10bit hevc-d3g Bluray Torrent
  • • Xvid Torrent The Taking of Pelham 123 2009 10bit hevc-d3g Download
  • • Download The Taking of Pelham 123 2009 10bit hevc-d3g Torrent Full HD
  • • Torrent The Taking of Pelham 123 2009 10bit hevc-d3g HDRip Download
  • • Download The Taking of Pelham 123 2009 10bit hevc-d3g Torrent Multi Language
  • • The Taking of Pelham 123 2009 10bit hevc-d3g Download Multi-Subs Torrent


Tagged with:

Related Movies Torrents