Home / The Lego Ninjago Movie 2017 1080p HC HDRip X264 AC3-EVO

The Lego Ninjago Movie 2017 1080p HC HDRip X264 AC3-EVO

date added 6 days ago   
post views 42 views   
torrent id ID: 444864

Torrent Description: This is a New Way to Download The Movie The Lego Ninjago Movie 2017 1080p HC HDRip X264 AC3-EVO Movie Torrent in HD Quality. The Lego Ninjago Movie 2017 1080p HC HDRip X264 AC3-EVO DVD Print, 1080p, 720p and Bluray. If you facing any problem Downloading The Lego Ninjago Movie 2017 1080p HC HDRip X264 AC3-EVO Movie Torrent. Scroll Down to Get Download Link.

http://vidtodo.com/embed-scslnjrhnwfk.html | Ore Monogatari! | Nitro Pro 9 5 1 5 Final (x86-x64) Incl Keygen-CORE
  • Category : Movies
  • Type : HD
  • Language : English
  • Total size : 3.8 GB
  • Uploaded By : showstopper-showstopper

The.Lego.Ninjago.Movie.2017.1080p.HC.HDRip.X264.AC3-EVO

ImDb: http://www.imdb.com/title/tt3014284



Complete name : The.Lego.Ninjago.Movie.2017.1080p.HC.HDRip.X264.AC3-EVO.mkv
Format : Matroska
Format version : Version 4 / Version 2
File size : 3.77 GiB
Duration : 1 h 37 min
Overall bit rate : 5 555 kb/s
Movie name : EVO
Encoded date : UTC 2017-10-12 17:16:16
Writing application : mkvmerge v6.7.0 ('Back to the Ground') 64bit built on Jan 8 2014 15:10:52
Writing library : libebml v1.3.0 + libmatroska v1.4.1

Video
ID : 1
Format : AVC
Format/Info : Advanced Video Codec
Format profile : [email protected]
Format settings, CABAC : Yes
Format settings, ReFrames : 4 frames
Codec ID : V_MPEG4/ISO/AVC
Duration : 1 h 37 min
Bit rate : 5 379 kb/s
Width : 1 920 pixels
Height : 800 pixels
Display aspect ratio : 2.40:1
Frame rate mode : Constant
Frame rate : 25.000 FPS
Color space : YUV
Chroma subsampling : 4:2:0
Bit depth : 8 bits
Scan type : Progressive
Bits/(Pixel*Frame) : 0.140
Stream size : 3.57 GiB (95%)
Writing library : x264 core 142 r2479 dd79a61
Encoding settings : cabac=1 / ref=1 / deblock=1:0:0 / analyse=0x3:0x113 / me=hex / subme=2 / psy=1 / psy_rd=1.00:0.00 / mixed_ref=0 / me_range=16 / chroma_me=1 / trellis=0 / 8x8dct=1 / cqm=0 / deadzone=21,11 / fast_pskip=1 / chroma_qp_offset=0 / threads=12 / lookahead_threads=4 / sliced_threads=0 / nr=0 / decimate=1 / interlaced=0 / bluray_compat=0 / constrained_intra=0 / bframes=3 / b_pyramid=2 / b_adapt=1 / b_bias=0 / direct=1 / weightb=1 / open_gop=0 / weightp=1 / keyint=250 / keyint_min=25 / scenecut=40 / intra_refresh=0 / rc_lookahead=10 / rc=abr / mbtree=1 / bitrate=5379 / ratetol=1.0 / qcomp=0.60 / qpmin=0 / qpmax=69 / qpstep=4 / vbv_maxrate=62500 / vbv_bufsize=78125 / nal_hrd=none / filler=0 / ip_ratio=1.40 / aq=1:1.00
Default : Yes
Forced : No
Color range : Limited
Color primaries : BT.709
Transfer characteristics : BT.709
Matrix coefficients : BT.709

Audio
ID : 2
Format : AC-3
Format/Info : Audio Coding 3
Format settings, Endianness : Big
Codec ID : A_AC3
Duration : 1 h 37 min
Bit rate mode : Constant
Bit rate : 192 kb/s
Channel(s) : 2 channels
Channel positions : Front: L R
Sampling rate : 48.0 kHz
Frame rate : 31.250 FPS (1536 spf)
Bit depth : 16 bits
Compression mode : Lossy
Delay relative to video : -5 ms
Stream size : 134 MiB (3%)
Title : Stereo
Language : English
Service kind : Complete Main
Default : Yes
Forced : No






Click To View Screenshot

Click To View Screenshot

Click To View Screenshot

DOWNLOAD LINK

The Lego Ninjago Movie 2017 1080p HC HDRip X264 AC3-EVO The Lego Ninjago Movie 2017 1080p HC HDRip X264 AC3-EVO


Latest Top Searches of peoples:

Download The Lego Ninjago Movie 2017 1080p HC HDRip X264 AC3-EVO Full Movie Torrent HD Quality.

Torrent The Lego Ninjago Movie 2017 1080p HC HDRip X264 AC3-EVO Download

Download Free The Lego Ninjago Movie 2017 1080p HC HDRip X264 AC3-EVO Torrent

Download The Lego Ninjago Movie 2017 1080p HC HDRip X264 AC3-EVO Torrent - Kickass Torrents.

The Lego Ninjago Movie 2017 1080p HC HDRip X264 AC3-EVO Download Torrent - Extratorrent.

The Lego Ninjago Movie 2017 1080p HC HDRip X264 AC3-EVO Downlaod - torrentz.in

Download The Lego Ninjago Movie 2017 1080p HC HDRip X264 AC3-EVO Torrent - bitsnoop..

Torrent The Lego Ninjago Movie 2017 1080p HC HDRip X264 AC3-EVO Download - Nyaa.se

The Lego Ninjago Movie 2017 1080p HC HDRip X264 AC3-EVO HD Full Download Free 2017 - Welltorrent.com.



People also Search for:

  • • Download The Lego Ninjago Movie 2017 1080p HC HDRip X264 AC3-EVO Torrent 1080p
  • • Torrent The Lego Ninjago Movie 2017 1080p HC HDRip X264 AC3-EVO Download DVDRip
  • • Download The Lego Ninjago Movie 2017 1080p HC HDRip X264 AC3-EVO Torrent 720p
  • • The Lego Ninjago Movie 2017 1080p HC HDRip X264 AC3-EVO High Resolution Torrent Result
  • • Download The Lego Ninjago Movie 2017 1080p HC HDRip X264 AC3-EVO Bluray Torrent
  • • Xvid Torrent The Lego Ninjago Movie 2017 1080p HC HDRip X264 AC3-EVO Download
  • • Download The Lego Ninjago Movie 2017 1080p HC HDRip X264 AC3-EVO Torrent Full HD
  • • Torrent The Lego Ninjago Movie 2017 1080p HC HDRip X264 AC3-EVO HDRip Download
  • • Download The Lego Ninjago Movie 2017 1080p HC HDRip X264 AC3-EVO Torrent Multi Language
  • • The Lego Ninjago Movie 2017 1080p HC HDRip X264 AC3-EVO Download Multi-Subs Torrent


Tagged with:

Related Movies Torrents