Home / The Crucifixion 2017 720p WEBRip DD 5 1 x264 [Moviezworldz]

The Crucifixion 2017 720p WEBRip DD 5 1 x264 [Moviezworldz]

date added 1 week ago   
post views 81 views   
torrent id ID: 444806

Torrent Description: This is a New Way to Download The Movie The Crucifixion 2017 720p WEBRip DD 5 1 x264 [Moviezworldz] Movie Torrent in HD Quality. The Crucifixion 2017 720p WEBRip DD 5 1 x264 [Moviezworldz] DVD Print, 1080p, 720p and Bluray. If you facing any problem Downloading The Crucifixion 2017 720p WEBRip DD 5 1 x264 [Moviezworldz] Movie Torrent. Scroll Down to Get Download Link.

Ezra Barry | Churchill | Tron Legacy (2010) IMAX 1080p BDRip Dual Audio Org BD Hindi+Eng 6Ch} -~DJ_DOO...
  • Category : Movies
  • Type : HD
  • Language : English
  • Total size : 890.3 MB
  • Uploaded By : moviezworldz-moviezworldz


General
Format : Matroska
Format version : Version 4 / Version 2
File size : 890 MiB
Duration : 1 h 29 min
Overall bit rate : 1 385 kb/s

Video
ID : 1
Format : AVC
Format/Info : Advanced Video Codec
Format profile : [email protected]
Format settings : CABAC / 4 Ref Frames
Format settings, CABAC : Yes
Format settings, RefFrames : 4 frames
Codec ID : V_MPEG4/ISO/AVC
Duration : 1 h 29 min
Bit rate : 1 200 kb/s
Width : 1 280 pixels
Height : 538 pixels
Display aspect ratio : 2.40:1
Frame rate mode : Constant
Frame rate : 23.976 (23976/1000) FPS
Color space : YUV
Chroma subsampling : 4:2:0
Bit depth : 8 bits
Scan type : Progressive
Bits/(Pixel*Frame) : 0.073
Stream size : 766 MiB (86%)
Writing library : x264 core 148 r2643 5c65704
Default : Yes
Forced : No

Audio
ID : 2
Format : AC-3
Format/Info : Audio Coding 3
Format settings, Endianness : Big
Codec ID : A_AC3
Duration : 1 h 29 min
Bit rate mode : Constant
Bit rate : 192 kb/s
Channel(s) : 6 channels
Channel positions : Front: L C R, Side: L R, LFE
Sampling rate : 48.0 kHz
Frame rate : 31.250 FPS (1536 SPF)
Bit depth : 16 bits
Compression mode : Lossy
Stream size : 123 MiB (14%)
Service kind : Complete Main
Default : Yes
Forced : No





DOWNLOAD LINK

The Crucifixion 2017 720p WEBRip DD 5 1 x264 [Moviezworldz] The Crucifixion 2017 720p WEBRip DD 5 1 x264 [Moviezworldz]


Latest Top Searches of peoples:

Download The Crucifixion 2017 720p WEBRip DD 5 1 x264 [Moviezworldz] Full Movie Torrent HD Quality.

Torrent The Crucifixion 2017 720p WEBRip DD 5 1 x264 [Moviezworldz] Download

Download Free The Crucifixion 2017 720p WEBRip DD 5 1 x264 [Moviezworldz] Torrent

Download The Crucifixion 2017 720p WEBRip DD 5 1 x264 [Moviezworldz] Torrent - Kickass Torrents.

The Crucifixion 2017 720p WEBRip DD 5 1 x264 [Moviezworldz] Download Torrent - Extratorrent.

The Crucifixion 2017 720p WEBRip DD 5 1 x264 [Moviezworldz] Downlaod - torrentz.in

Download The Crucifixion 2017 720p WEBRip DD 5 1 x264 [Moviezworldz] Torrent - bitsnoop..

Torrent The Crucifixion 2017 720p WEBRip DD 5 1 x264 [Moviezworldz] Download - Nyaa.se

The Crucifixion 2017 720p WEBRip DD 5 1 x264 [Moviezworldz] HD Full Download Free 2017 - Welltorrent.com.



People also Search for:

  • • Download The Crucifixion 2017 720p WEBRip DD 5 1 x264 [Moviezworldz] Torrent 1080p
  • • Torrent The Crucifixion 2017 720p WEBRip DD 5 1 x264 [Moviezworldz] Download DVDRip
  • • Download The Crucifixion 2017 720p WEBRip DD 5 1 x264 [Moviezworldz] Torrent 720p
  • • The Crucifixion 2017 720p WEBRip DD 5 1 x264 [Moviezworldz] High Resolution Torrent Result
  • • Download The Crucifixion 2017 720p WEBRip DD 5 1 x264 [Moviezworldz] Bluray Torrent
  • • Xvid Torrent The Crucifixion 2017 720p WEBRip DD 5 1 x264 [Moviezworldz] Download
  • • Download The Crucifixion 2017 720p WEBRip DD 5 1 x264 [Moviezworldz] Torrent Full HD
  • • Torrent The Crucifixion 2017 720p WEBRip DD 5 1 x264 [Moviezworldz] HDRip Download
  • • Download The Crucifixion 2017 720p WEBRip DD 5 1 x264 [Moviezworldz] Torrent Multi Language
  • • The Crucifixion 2017 720p WEBRip DD 5 1 x264 [Moviezworldz] Download Multi-Subs Torrent


Tagged with:

Related Movies Torrents