Home / My Life As A Dog 1985 PROPER 1080p BluRay x264-GHOULS

My Life As A Dog 1985 PROPER 1080p BluRay x264-GHOULS

date added 1 week ago   
post views 21 views   
torrent id ID: 444815

Torrent Description: This is a New Way to Download The Movie My Life As A Dog 1985 PROPER 1080p BluRay x264-GHOULS Movie Torrent in HD Quality. My Life As A Dog 1985 PROPER 1080p BluRay x264-GHOULS DVD Print, 1080p, 720p and Bluray. If you facing any problem Downloading My Life As A Dog 1985 PROPER 1080p BluRay x264-GHOULS Movie Torrent. Scroll Down to Get Download Link.

Sleepwalker Troubled by bouts of sleepwalking and disturbing nightmares, graduate student Sarah Foster goes to her university sleep research center for help. But when she wakes up after her first night of being monitored, the world she lives in seems to have changed in subtle, Twilight-Zone-esque ways. | The Chainsmokers - Collage (EP) Album | All Movies
  • Category : Movies
  • Type : HD
  • Language : English
  • Total size : 6.6 GB
  • Uploaded By : showstopper-showstopper

My.Life.As.A.Dog.1985.PROPER.1080p.BluRay.x264-GHOULS

ImDb: http://www.imdb.com/title/tt0089606



Complete name : my.life.as.a.dog.1985.proper.1080p.bluray.x264-ghouls.mkv
Format : Matroska
Format version : Version 4 / Version 2
File size : 6.56 GiB
Duration : 1 h 42 min
Overall bit rate : 9 143 kb/s
Encoded date : UTC 2017-10-11 19:44:08
Writing application : mkvmerge v16.0.0 ('Protest') 64-bit
Writing library : libebml v1.3.5 + libmatroska v1.4.8

Video
ID : 2
Format : AVC
Format/Info : Advanced Video Codec
Format profile : [email protected]
Format settings, CABAC : Yes
Format settings, ReFrames : 4 frames
Codec ID : V_MPEG4/ISO/AVC
Duration : 1 h 42 min
Bit rate : 8 559 kb/s
Width : 1 808 pixels
Height : 1 080 pixels
Display aspect ratio : 5:3
Frame rate mode : Constant
Frame rate : 23.976 (24000/1001) FPS
Color space : YUV
Chroma subsampling : 4:2:0
Bit depth : 8 bits
Scan type : Progressive
Bits/(Pixel*Frame) : 0.183
Stream size : 5.97 GiB (91%)
Writing library : x264 core 152 r2851kMod ba24899
Encoding settings : cabac=1 / ref=4 / deblock=1:-3:-3 / analyse=0x3:0x133 / me=umh / subme=8 / psy=1 / fade_compensate=0.00 / psy_rd=1.00:0.00 / mixed_ref=1 / me_range=16 / chroma_me=1 / trellis=1 / 8x8dct=1 / cqm=0 / deadzone=21,11 / fast_pskip=0 / chroma_qp_offset=-2 / threads=6 / lookahead_threads=1 / sliced_threads=0 / nr=0 / decimate=1 / interlaced=0 / bluray_compat=0 / constrained_intra=0 / bframes=3 / b_pyramid=2 / b_adapt=1 / b_bias=0 / direct=3 / weightb=1 / open_gop=0 / weightp=2 / keyint=250 / keyint_min=23 / scenecut=40 / intra_refresh=0 / rc_lookahead=50 / rc=2pass / mbtree=1 / bitrate=8559 / ratetol=1.0 / qcomp=0.60 / qpmin=0 / qpmax=69 / qpstep=4 / cplxblur=20.0 / qblur=0.5 / vbv_maxrate=62500 / vbv_bufsize=78125 / nal_hrd=none / filler=0 / ip_ratio=1.40 / aq=1:1.00
Default : Yes
Forced : No

Audio
ID : 3
Format : AC-3
Format/Info : Audio Coding 3
Format settings, Endianness : Big
Codec ID : A_AC3
Duration : 1 h 42 min
Bit rate mode : Constant
Bit rate : 640 kb/s
Channel(s) : 2 channels
Channel positions : Front: L R
Sampling rate : 48.0 kHz
Frame rate : 31.250 FPS (1536 spf)
Bit depth : 16 bits
Compression mode : Lossy
Stream size : 470 MiB (7%)
Language : Swedish
Service kind : Complete Main
Default : Yes
Forced : No

Text
ID : 1
Format : UTF-8
Codec ID : S_TEXT/UTF8
Codec ID/Info : UTF-8 Plain Text
Language : English
Default : Yes
Forced : No

Menu
00:00:00.000 : en:00:00:00.000
00:08:00.605 : en:00:08:00.605
00:16:30.072 : en:00:16:30.072
00:25:46.545 : en:00:25:46.545
00:34:32.570 : en:00:34:32.570
00:42:32.800 : en:00:42:32.800
00:52:21.013 : en:00:52:21.013
01:01:58.006 : en:01:01:58.006
01:13:06.257 : en:01:13:06.257
01:21:36.100 : en:01:21:36.100
01:27:30.245 : en:01:27:30.245
01:35:22.258 : en:01:35:22.258






Click To View Screenshot

Click To View Screenshot

Click To View Screenshot

DOWNLOAD LINK

My Life As A Dog 1985 PROPER 1080p BluRay x264-GHOULS My Life As A Dog 1985 PROPER 1080p BluRay x264-GHOULS


Latest Top Searches of peoples:

Download My Life As A Dog 1985 PROPER 1080p BluRay x264-GHOULS Full Movie Torrent HD Quality.

Torrent My Life As A Dog 1985 PROPER 1080p BluRay x264-GHOULS Download

Download Free My Life As A Dog 1985 PROPER 1080p BluRay x264-GHOULS Torrent

Download My Life As A Dog 1985 PROPER 1080p BluRay x264-GHOULS Torrent - Kickass Torrents.

My Life As A Dog 1985 PROPER 1080p BluRay x264-GHOULS Download Torrent - Extratorrent.

My Life As A Dog 1985 PROPER 1080p BluRay x264-GHOULS Downlaod - torrentz.in

Download My Life As A Dog 1985 PROPER 1080p BluRay x264-GHOULS Torrent - bitsnoop..

Torrent My Life As A Dog 1985 PROPER 1080p BluRay x264-GHOULS Download - Nyaa.se

My Life As A Dog 1985 PROPER 1080p BluRay x264-GHOULS HD Full Download Free 2017 - Welltorrent.com.



People also Search for:

  • • Download My Life As A Dog 1985 PROPER 1080p BluRay x264-GHOULS Torrent 1080p
  • • Torrent My Life As A Dog 1985 PROPER 1080p BluRay x264-GHOULS Download DVDRip
  • • Download My Life As A Dog 1985 PROPER 1080p BluRay x264-GHOULS Torrent 720p
  • • My Life As A Dog 1985 PROPER 1080p BluRay x264-GHOULS High Resolution Torrent Result
  • • Download My Life As A Dog 1985 PROPER 1080p BluRay x264-GHOULS Bluray Torrent
  • • Xvid Torrent My Life As A Dog 1985 PROPER 1080p BluRay x264-GHOULS Download
  • • Download My Life As A Dog 1985 PROPER 1080p BluRay x264-GHOULS Torrent Full HD
  • • Torrent My Life As A Dog 1985 PROPER 1080p BluRay x264-GHOULS HDRip Download
  • • Download My Life As A Dog 1985 PROPER 1080p BluRay x264-GHOULS Torrent Multi Language
  • • My Life As A Dog 1985 PROPER 1080p BluRay x264-GHOULS Download Multi-Subs Torrent


Tagged with:

Related Movies Torrents