Home / Knight and Day 2010 hevc-d3g

Knight and Day 2010 hevc-d3g

date added 1 week ago   
post views 22 views   
torrent id ID: 444828

Torrent Description: This is a New Way to Download The Movie Knight and Day 2010 hevc-d3g Movie Torrent in HD Quality. Knight and Day 2010 hevc-d3g DVD Print, 1080p, 720p and Bluray. If you facing any problem Downloading Knight and Day 2010 hevc-d3g Movie Torrent. Scroll Down to Get Download Link.

Watch movie | Demonbane | Rosalie Blum
  • Category : Movies
  • Type : HD
  • Language : English
  • Total size : 2.5 GB
  • Uploaded By : showstopper-showstopper

Knight and Day 2010 hevc-d3g.

ImDb: http://www.imdb.com/title/tt1013743



Complete name : Knight and Day 2010 ExtCut BluRay 1080p DD5.1 H265-d3g.mkv
Format : Matroska
Format version : Version 2
File size : 2.46 GiB
Duration : 1 h 57 min
Overall bit rate : 3 010 kb/s
Movie name : Knight and Day 2010 ExtCut BluRay 1080p DD5.1 H265-d3g
Encoded date : UTC 2017-10-08 13:10:53
Writing application : DVDFab 10.0.6.2
Writing library : libebml v1.3.4 + libmatroska v1.4.5

Video
ID : 1
Format : HEVC
Format/Info : High Efficiency Video Coding
Format profile : [email protected]@Main
Codec ID : V_MPEGH/ISO/HEVC
Duration : 1 h 57 min
Bit rate : 2 452 kb/s
Width : 1 920 pixels
Height : 800 pixels
Display aspect ratio : 2.40:1
Frame rate mode : Constant
Frame rate : 23.976 (24000/1001) FPS
Color space : YUV
Chroma subsampling : 4:2:0 (Type 1 / Type 0)
Bit depth : 8 bits
Bits/(Pixel*Frame) : 0.067
Stream size : 2.01 GiB (81%)
Default : Yes
Forced : No
Color range : Limited
Color primaries : BT.709
Transfer characteristics : BT.709
Matrix coefficients : BT.709

Audio
ID : 2
Format : AC-3
Format/Info : Audio Coding 3
Format settings, Endianness : Big
Codec ID : A_AC3
Duration : 1 h 57 min
Bit rate mode : Constant
Bit rate : 448 kb/s
Channel(s) : 6 channels
Channel positions : Front: L C R, Side: L R, LFE
Sampling rate : 48.0 kHz
Frame rate : 31.250 FPS (1536 spf)
Bit depth : 16 bits
Compression mode : Lossy
Stream size : 375 MiB (15%)
Language : English
Service kind : Complete Main
Default : Yes
Forced : No

Text #1
ID : 3
Format : VobSub
Codec ID : S_VOBSUB
Codec ID/Info : Picture based subtitle format used on DVDs
Duration : 1 h 55 min
Bit rate : 8 330 b/s
Count of elements : 1354
Stream size : 6.91 MiB (0%)
Language : English
Default : Yes
Forced : No

Text #2
ID : 4
Format : VobSub
Codec ID : S_VOBSUB
Codec ID/Info : Picture based subtitle format used on DVDs
Duration : 1 h 56 min
Bit rate : 9 966 b/s
Count of elements : 1628
Stream size : 8.29 MiB (0%)
Language : English
Default : No
Forced : No

Text #3
ID : 5
Format : VobSub
Codec ID : S_VOBSUB
Codec ID/Info : Picture based subtitle format used on DVDs
Duration : 1 h 55 min
Bit rate : 5 976 b/s
Count of elements : 1257
Stream size : 4.96 MiB (0%)
Language : French
Default : No
Forced : No

Text #4
ID : 6
Format : VobSub
Codec ID : S_VOBSUB
Codec ID/Info : Picture based subtitle format used on DVDs
Duration : 1 h 55 min
Bit rate : 8 023 b/s
Count of elements : 1370
Stream size : 6.65 MiB (0%)
Language : Danish
Default : No
Forced : No

Text #5
ID : 7
Format : VobSub
Codec ID : S_VOBSUB
Codec ID/Info : Picture based subtitle format used on DVDs
Duration : 1 h 55 min
Bit rate : 6 457 b/s
Count of elements : 1368
Stream size : 5.35 MiB (0%)
Language : Finnish
Default : No
Forced : No

Text #6
ID : 8
Format : VobSub
Codec ID : S_VOBSUB
Codec ID/Info : Picture based subtitle format used on DVDs
Duration : 1 h 55 min
Bit rate : 6 217 b/s
Count of elements : 1085
Stream size : 5.16 MiB (0%)
Language : Dutch
Default : No
Forced : No

Text #7
ID : 9
Format : VobSub
Codec ID : S_VOBSUB
Codec ID/Info : Picture based subtitle format used on DVDs
Duration : 1 h 55 min
Bit rate : 7 017 b/s
Count of elements : 1370
Stream size : 5.82 MiB (0%)
Language : Norwegian
Default : No
Forced : No

Text #8
ID : 10
Format : VobSub
Codec ID : S_VOBSUB
Codec ID/Info : Picture based subtitle format used on DVDs
Duration : 1 h 55 min
Bit rate : 7 686 b/s
Count of elements : 1371
Stream size : 6.37 MiB (0%)
Language : Swedish
Default : No
Forced : No

Text #9
ID : 11
Format : VobSub
Codec ID : S_VOBSUB
Codec ID/Info : Picture based subtitle format used on DVDs
Duration : 1 h 55 min
Bit rate : 7 083 b/s
Count of elements : 1379
Stream size : 5.87 MiB (0%)
Language : Bulgarian
Default : No
Forced : No

Text #10
ID : 12
Format : VobSub
Codec ID : S_VOBSUB
Codec ID/Info : Picture based subtitle format used on DVDs
Duration : 1 h 55 min
Bit rate : 7 026 b/s
Count of elements : 1370
Stream size : 5.83 MiB (0%)
Language : Croatian
Default : No
Forced : No

Text #11
ID : 13
Format : VobSub
Codec ID : S_VOBSUB
Codec ID/Info : Picture based subtitle format used on DVDs
Duration : 1 h 55 min
Bit rate : 7 629 b/s
Count of elements : 1375
Stream size : 6.33 MiB (0%)
Language : Greek
Default : No
Forced : No

Text #12
ID : 14
Format : VobSub
Codec ID : S_VOBSUB
Codec ID/Info : Picture based subtitle format used on DVDs
Duration : 1 h 55 min
Bit rate : 4 758 b/s
Count of elements : 1468
Stream size : 3.95 MiB (0%)
Language : Chinese
Default : No
Forced : No

Text #13
ID : 15
Format : VobSub
Codec ID : S_VOBSUB
Codec ID/Info : Picture based subtitle format used on DVDs
Duration : 1 h 55 min
Bit rate : 8 540 b/s
Count of elements : 1371
Stream size : 7.08 MiB (0%)
Language : Icelandic
Default : No
Forced : No

Text #14
ID : 16
Format : VobSub
Codec ID : S_VOBSUB
Codec ID/Info : Picture based subtitle format used on DVDs
Duration : 1 h 55 min
Bit rate : 5 261 b/s
Count of elements : 1376
Stream size : 4.36 MiB (0%)
Language : Hebrew
Default : No
Forced : No

Text #15
ID : 17
Format : VobSub
Codec ID : S_VOBSUB
Codec ID/Info : Picture based subtitle format used on DVDs
Duration : 1 h 55 min
Bit rate : 7 815 b/s
Count of elements : 1349
Stream size : 6.48 MiB (0%)
Language : Portuguese
Default : No
Forced : No

Menu
00:00:00.000 : en:00:00:00.000
00:04:52.083 : en:00:04:52.083
00:07:05.425 : en:00:07:05.425
00:11:11.629 : en:00:11:11.629
00:13:45.033 : en:00:13:45.033
00:18:34.864 : en:00:18:34.864
00:20:58.132 : en:00:20:58.132
00:24:22.628 : en:00:24:22.628
00:32:58.977 : en:00:32:58.977
00:38:00.987 : en:00:38:00.987
00:41:05.963 : en:00:41:05.963
00:45:46.494 : en:00:45:46.494
00:52:18.969 : en:00:52:18.969
00:56:14.329 : en:00:56:14.329
00:59:15.552 : en:00:59:15.552
01:02:27.786 : en:01:02:27.786
01:06:50.423 : en:01:06:50.423
01:13:29.280 : en:01:13:29.280
01:17:45.703 : en:01:17:45.703
01:23:31.381 : en:01:23:31.381
01:25:51.396 : en:01:25:51.396
01:30:08.278 : en:01:30:08.278
01:34:34.419 : en:01:34:34.419
01:37:50.031 : en:01:37:50.031
01:42:34.982 : en:01:42:34.982
01:45:25.736 : en:01:45:25.736
01:48:14.530 : en:01:48:14.530
01:51:51.204 : en:01:51:51.204






Click To View Screenshot

Click To View Screenshot

Click To View Screenshot

DOWNLOAD LINK

Knight and Day 2010 hevc-d3g Knight and Day 2010 hevc-d3g


Latest Top Searches of peoples:

Download Knight and Day 2010 hevc-d3g Full Movie Torrent HD Quality.

Torrent Knight and Day 2010 hevc-d3g Download

Download Free Knight and Day 2010 hevc-d3g Torrent

Download Knight and Day 2010 hevc-d3g Torrent - Kickass Torrents.

Knight and Day 2010 hevc-d3g Download Torrent - Extratorrent.

Knight and Day 2010 hevc-d3g Downlaod - torrentz.in

Download Knight and Day 2010 hevc-d3g Torrent - bitsnoop..

Torrent Knight and Day 2010 hevc-d3g Download - Nyaa.se

Knight and Day 2010 hevc-d3g HD Full Download Free 2017 - Welltorrent.com.



People also Search for:

  • • Download Knight and Day 2010 hevc-d3g Torrent 1080p
  • • Torrent Knight and Day 2010 hevc-d3g Download DVDRip
  • • Download Knight and Day 2010 hevc-d3g Torrent 720p
  • • Knight and Day 2010 hevc-d3g High Resolution Torrent Result
  • • Download Knight and Day 2010 hevc-d3g Bluray Torrent
  • • Xvid Torrent Knight and Day 2010 hevc-d3g Download
  • • Download Knight and Day 2010 hevc-d3g Torrent Full HD
  • • Torrent Knight and Day 2010 hevc-d3g HDRip Download
  • • Download Knight and Day 2010 hevc-d3g Torrent Multi Language
  • • Knight and Day 2010 hevc-d3g Download Multi-Subs Torrent


Tagged with:

Related Movies Torrents