Home / Jaan Tere Naam 1992 720p DVDRip x264 AAC [Moviezworldz]

Jaan Tere Naam 1992 720p DVDRip x264 AAC [Moviezworldz]

date added 1 week ago   
post views 20 views   
torrent id ID: 444824

Torrent Description: This is a New Way to Download The Movie Jaan Tere Naam 1992 720p DVDRip x264 AAC [Moviezworldz] Movie Torrent in HD Quality. Jaan Tere Naam 1992 720p DVDRip x264 AAC [Moviezworldz] DVD Print, 1080p, 720p and Bluray. If you facing any problem Downloading Jaan Tere Naam 1992 720p DVDRip x264 AAC [Moviezworldz] Movie Torrent. Scroll Down to Get Download Link.

Royal Pains saison 7 épisode 4 | Scaricare | Justified
  • Category : Movies
  • Type : Bollywood
  • Language : Hindi
  • Total size : 1.2 GB
  • Uploaded By : moviezworldz-moviezworldz


General
Format : Matroska
Format version : Version 4 / Version 2
File size : 1.22 GiB
Duration : 2 h 10 min
Overall bit rate : 1 335 kb/s

Video
ID : 1
Format : AVC
Format/Info : Advanced Video Codec
Format profile : [email protected]
Format settings : CABAC / 4 Ref Frames
Format settings, CABAC : Yes
Format settings, RefFrames : 4 frames
Codec ID : V_MPEG4/ISO/AVC
Duration : 2 h 10 min
Bit rate : 1 200 kb/s
Width : 1 280 pixels
Height : 538 pixels
Display aspect ratio : 2.40:1
Frame rate mode : Constant
Frame rate : 25.000 FPS
Color space : YUV
Chroma subsampling : 4:2:0
Bit depth : 8 bits
Scan type : Progressive
Bits/(Pixel*Frame) : 0.070
Stream size : 1.10 GiB (90%)
Writing library : x264 core 148 r2643 5c65704
Default : Yes
Forced : No

Audio
ID : 2
Format : AAC
Format/Info : Advanced Audio Codec
Format profile : LC
Codec ID : A_AAC-2
Duration : 2 h 10 min
Bit rate : 128 kb/s
Channel(s) : 2 channels
Channel positions : Front: L R
Sampling rate : 44.1 kHz
Frame rate : 43.066 FPS (1024 SPF)
Compression mode : Lossy
Stream size : 120 MiB (10%)
Default : Yes
Forced : No





DOWNLOAD LINK

Jaan Tere Naam 1992 720p DVDRip x264 AAC [Moviezworldz] Jaan Tere Naam 1992 720p DVDRip x264 AAC [Moviezworldz]


Latest Top Searches of peoples:

Download Jaan Tere Naam 1992 720p DVDRip x264 AAC [Moviezworldz] Full Movie Torrent HD Quality.

Torrent Jaan Tere Naam 1992 720p DVDRip x264 AAC [Moviezworldz] Download

Download Free Jaan Tere Naam 1992 720p DVDRip x264 AAC [Moviezworldz] Torrent

Download Jaan Tere Naam 1992 720p DVDRip x264 AAC [Moviezworldz] Torrent - Kickass Torrents.

Jaan Tere Naam 1992 720p DVDRip x264 AAC [Moviezworldz] Download Torrent - Extratorrent.

Jaan Tere Naam 1992 720p DVDRip x264 AAC [Moviezworldz] Downlaod - torrentz.in

Download Jaan Tere Naam 1992 720p DVDRip x264 AAC [Moviezworldz] Torrent - bitsnoop..

Torrent Jaan Tere Naam 1992 720p DVDRip x264 AAC [Moviezworldz] Download - Nyaa.se

Jaan Tere Naam 1992 720p DVDRip x264 AAC [Moviezworldz] HD Full Download Free 2017 - Welltorrent.com.



People also Search for:

  • • Download Jaan Tere Naam 1992 720p DVDRip x264 AAC [Moviezworldz] Torrent 1080p
  • • Torrent Jaan Tere Naam 1992 720p DVDRip x264 AAC [Moviezworldz] Download DVDRip
  • • Download Jaan Tere Naam 1992 720p DVDRip x264 AAC [Moviezworldz] Torrent 720p
  • • Jaan Tere Naam 1992 720p DVDRip x264 AAC [Moviezworldz] High Resolution Torrent Result
  • • Download Jaan Tere Naam 1992 720p DVDRip x264 AAC [Moviezworldz] Bluray Torrent
  • • Xvid Torrent Jaan Tere Naam 1992 720p DVDRip x264 AAC [Moviezworldz] Download
  • • Download Jaan Tere Naam 1992 720p DVDRip x264 AAC [Moviezworldz] Torrent Full HD
  • • Torrent Jaan Tere Naam 1992 720p DVDRip x264 AAC [Moviezworldz] HDRip Download
  • • Download Jaan Tere Naam 1992 720p DVDRip x264 AAC [Moviezworldz] Torrent Multi Language
  • • Jaan Tere Naam 1992 720p DVDRip x264 AAC [Moviezworldz] Download Multi-Subs Torrent


Tagged with:

Related Movies Torrents