Home / Cult of Chucky 2017 1080p Bluray x265 10Bit AAC 5 1 - GetSchwifty

Cult of Chucky 2017 1080p Bluray x265 10Bit AAC 5 1 - GetSchwifty

date added 6 days ago   
post views 31 views   
torrent id ID: 444835

Torrent Description: This is a New Way to Download The Movie Cult of Chucky 2017 1080p Bluray x265 10Bit AAC 5 1 - GetSchwifty Movie Torrent in HD Quality. Cult of Chucky 2017 1080p Bluray x265 10Bit AAC 5 1 - GetSchwifty DVD Print, 1080p, 720p and Bluray. If you facing any problem Downloading Cult of Chucky 2017 1080p Bluray x265 10Bit AAC 5 1 - GetSchwifty Movie Torrent. Scroll Down to Get Download Link.

Reunited Worlds | Chicago PD 1ª 2ª 3ª 4ª Todas Temporadas – 720p Legendado Download (2014 – 2017) | Fantastique
  • Category : Movies
  • Type : HEVC/x265
  • Language : English
  • Total size : 2.6 GB
  • Uploaded By : GetSchwifty-GetSchwifty

Source File:

Cult of Chucky 2017 Unrated 1080p BluRay REMUX AVC DTS-HD MA 5.1-EPSiLON



Media Information:


Code:

General
Unique ID : 224698971522353626574016623106222132537 (0xA90B72A13CD7CB55BB6D81ED0BE70D39)
Complete name : G:\Seeding\Cult of Chucky 2017 1080p Bluray x265 10Bit AAC 5.1 - GetSchwifty\Cult of Chucky 2017 1080p Bluray x265 10Bit AAC 5.1 - GetSchwifty.mkv
Format : Matroska
Format version : Version 4 / Version 2
File size : 2.57 GiB
Duration : 1 h 30 min
Overall bit rate : 4 086 kb/s
Movie name : Cult of Chucky
Encoded date : UTC 2017-10-11 16:55:42
Writing application : mkvmerge v14.0.0 ('Flow') 64bit
Writing library : libebml v1.3.4 + libmatroska v1.4.5

Video
ID : 1
Format : HEVC
Format/Info : High Efficiency Video Coding
Format profile : Main [email protected]@Main
Codec ID : V_MPEGH/ISO/HEVC
Duration : 1 h 30 min
Bit rate : 3 619 kb/s
Width : 1 920 pixels
Height : 1 080 pixels
Display aspect ratio : 16:9
Frame rate mode : Constant
Frame rate : 23.976 (24000/1001) FPS
Color space : YUV
Chroma subsampling : 4:2:0
Bit depth : 10 bits
Bits/(Pixel*Frame) : 0.073
Stream size : 2.28 GiB (89%)
Writing library : x265 2.5+17-f8ae7afc1f61:[Windows][GCC 6.2.1][64 bit] 10bit
Encoding settings : cpuid=1050111 / frame-threads=3 / numa-pools=8 / wpp / no-pmode / no-pme / no-psnr / no-ssim / log-level=2 / input-csp=1 / input-res=1920x1080 / interlace=0 / total-frames=129551 / level-idc=0 / high-tier=1 / uhd-bd=0 / ref=5 / no-allow-non-conformance / no-repeat-headers / annexb / no-aud / no-hrd / info / hash=0 / no-temporal-layers / open-gop / min-keyint=23 / keyint=250 / bframes=8 / b-adapt=2 / b-pyramid / bframe-bias=0 / rc-lookahead=80 / lookahead-slices=6 / scenecut=40 / no-intra-refresh / ctu=64 / min-cu-size=8 / no-rect / no-amp / max-tu-size=32 / tu-inter-depth=1 / tu-intra-depth=1 / limit-tu=0 / rdoq-level=0 / dynamic-rd=0.00 / no-ssim-rd / signhide / no-tskip / nr-intra=0 / nr-inter=0 / no-constrained-intra / strong-intra-smoothing / max-merge=3 / limit-refs=3 / limit-modes / me=3 / subme=5 / merange=57 / temporal-mvp / weightp / weightb / no-analyze-src-pics / deblock=0:0 / sao / no-sao-non-deblock / rd=3 / no-early-skip / rskip / no-fast-intra / no-tskip-fast / no-cu-lossless / no-b-intra / no-splitrd-skip / rdpenalty=0 / psy-rd=0.30 / psy-rdoq=0.00 / no-rd-refine / analysis-reuse-mode=0 / no-lossless / cbqpoffs=0 / crqpoffs=0 / rc=abr / bitrate=3618 / qcomp=0.60 / qpstep=4 / stats-write=0 / stats-read=2 / cplxblur=20.0 / qblur=0.5 / ipratio=1.40 / pbratio=1.30 / aq-mode=3 / aq-strength=1.00 / cutree / zone-count=0 / no-strict-cbr / qg-size=32 / no-rc-grain / qpmax=69 / qpmin=0 / no-const-vbv / sar=0 / overscan=0 / videoformat=5 / range=0 / colorprim=2 / transfer=2 / colormatrix=2 / chromaloc=0 / display-window=0 / max-cll=0,0 / min-luma=0 / max-luma=1023 / log2-max-poc-lsb=8 / vui-timing-info / vui-hrd-info / slices=1 / opt-qp-pps / opt-ref-list-length-pps / no-multi-pass-opt-rps / scenecut-bias=0.05 / no-opt-cu-delta-qp / aq-motion / no-hdr / no-hdr-opt / no-dhdr10-opt / analysis-reuse-level=5 / scale-factor=0 / refine-intra=0 / refine-inter=0 / refine-mv=0 / no-limit-sao / ctu-info=0
Default : Yes
Forced : No

Audio #1
ID : 2
Format : AAC
Format/Info : Advanced Audio Codec
Format profile : LC
Codec ID : A_AAC
Duration : 1 h 30 min
Bit rate : 250 kb/s
Channel(s) : 6 channels
Channel positions : Front: L C R, Side: L R, LFE
Sampling rate : 48.0 kHz
Frame rate : 46.875 FPS (1024 SPF)
Compression mode : Lossy
Delay relative to video : 9 ms
Stream size : 161 MiB (6%)
Title : English AAC VBR 5.1
Language : English
Default : Yes
Forced : No

Audio #2
ID : 3
Format : AC-3
Format/Info : Audio Coding 3
Mode : Dolby Digital
Format settings, Endianness : Big
Codec ID : A_AC3
Duration : 1 h 30 min
Bit rate mode : Constant
Bit rate : 192 kb/s
Channel(s) : 2 channels
Channel positions : Front: L R
Sampling rate : 48.0 kHz
Frame rate : 31.250 FPS (1536 SPF)
Bit depth : 16 bits
Compression mode : Lossy
Stream size : 124 MiB (5%)
Title : Commentary by Exec. Producer Don Mancini and Head Puppeteer Tony Gardner
Language : English
Service kind : Complete Main
Default : No
Forced : No

Text #1
ID : 4
Format : PGS
Muxing mode : zlib
Codec ID : S_HDMV/PGS
Codec ID/Info : Picture based subtitle format used on BDs/HD-DVDs
Duration : 1 h 26 min
Bit rate : 29.0 kb/s
Count of elements : 2105
Stream size : 17.9 MiB (1%)
Title : SDH
Language : English
Default : No
Forced : No

Text #2
ID : 5
Format : PGS
Muxing mode : zlib
Codec ID : S_HDMV/PGS
Codec ID/Info : Picture based subtitle format used on BDs/HD-DVDs
Duration : 1 h 29 min
Bit rate : 21.9 kb/s
Count of elements : 1725
Stream size : 14.0 MiB (1%)
Language : Spanish
Default : No
Forced : No

Text #3
ID : 6
Format : PGS
Muxing mode : zlib
Codec ID : S_HDMV/PGS
Codec ID/Info : Picture based subtitle format used on BDs/HD-DVDs
Duration : 1 h 29 min
Bit rate : 24.0 kb/s
Count of elements : 1725
Stream size : 15.3 MiB (1%)
Language : French
Default : No
Forced : No

Menu
00:00:00.000 : en:Chapter 1
00:02:36.573 : en:Chapter 2
00:07:26.571 : en:Chapter 3
00:11:59.260 : en:Chapter 4
00:15:36.853 : en:Chapter 5
00:19:20.451 : en:Chapter 6
00:25:09.007 : en:Chapter 7
00:29:37.818 : en:Chapter 8
00:33:01.730 : en:Chapter 9
00:38:30.892 : en:Chapter 10
00:45:59.423 : en:Chapter 11
00:51:15.239 : en:Chapter 12
00:56:04.319 : en:Chapter 13
01:01:20.760 : en:Chapter 14
01:08:09.168 : en:Chapter 15
01:12:06.072 : en:Chapter 16
01:17:06.163 : en:Chapter 17
01:21:51.824 : en:Chapter 18
01:24:27.145 : en:Chapter 19
01:26:53.375 : en:Chapter 20

DOWNLOAD LINK

Cult of Chucky 2017 1080p Bluray x265 10Bit AAC 5 1 - GetSchwifty Cult of Chucky 2017 1080p Bluray x265 10Bit AAC 5 1 - GetSchwifty


Latest Top Searches of peoples:

Download Cult of Chucky 2017 1080p Bluray x265 10Bit AAC 5 1 - GetSchwifty Full Movie Torrent HD Quality.

Torrent Cult of Chucky 2017 1080p Bluray x265 10Bit AAC 5 1 - GetSchwifty Download

Download Free Cult of Chucky 2017 1080p Bluray x265 10Bit AAC 5 1 - GetSchwifty Torrent

Download Cult of Chucky 2017 1080p Bluray x265 10Bit AAC 5 1 - GetSchwifty Torrent - Kickass Torrents.

Cult of Chucky 2017 1080p Bluray x265 10Bit AAC 5 1 - GetSchwifty Download Torrent - Extratorrent.

Cult of Chucky 2017 1080p Bluray x265 10Bit AAC 5 1 - GetSchwifty Downlaod - torrentz.in

Download Cult of Chucky 2017 1080p Bluray x265 10Bit AAC 5 1 - GetSchwifty Torrent - bitsnoop..

Torrent Cult of Chucky 2017 1080p Bluray x265 10Bit AAC 5 1 - GetSchwifty Download - Nyaa.se

Cult of Chucky 2017 1080p Bluray x265 10Bit AAC 5 1 - GetSchwifty HD Full Download Free 2017 - Welltorrent.com.



People also Search for:

  • • Download Cult of Chucky 2017 1080p Bluray x265 10Bit AAC 5 1 - GetSchwifty Torrent 1080p
  • • Torrent Cult of Chucky 2017 1080p Bluray x265 10Bit AAC 5 1 - GetSchwifty Download DVDRip
  • • Download Cult of Chucky 2017 1080p Bluray x265 10Bit AAC 5 1 - GetSchwifty Torrent 720p
  • • Cult of Chucky 2017 1080p Bluray x265 10Bit AAC 5 1 - GetSchwifty High Resolution Torrent Result
  • • Download Cult of Chucky 2017 1080p Bluray x265 10Bit AAC 5 1 - GetSchwifty Bluray Torrent
  • • Xvid Torrent Cult of Chucky 2017 1080p Bluray x265 10Bit AAC 5 1 - GetSchwifty Download
  • • Download Cult of Chucky 2017 1080p Bluray x265 10Bit AAC 5 1 - GetSchwifty Torrent Full HD
  • • Torrent Cult of Chucky 2017 1080p Bluray x265 10Bit AAC 5 1 - GetSchwifty HDRip Download
  • • Download Cult of Chucky 2017 1080p Bluray x265 10Bit AAC 5 1 - GetSchwifty Torrent Multi Language
  • • Cult of Chucky 2017 1080p Bluray x265 10Bit AAC 5 1 - GetSchwifty Download Multi-Subs Torrent


Tagged with:

Related Movies Torrents