Home / Calendar Girls 2015 Hindi Untouched 720p WEB-DL x264 AAC ESub-Hon

Calendar Girls 2015 Hindi Untouched 720p WEB-DL x264 AAC ESub-Hon

date added 1 week ago   
post views 36 views   
torrent id ID: 444818

Torrent Description: This is a New Way to Download The Movie Calendar Girls 2015 Hindi Untouched 720p WEB-DL x264 AAC ESub-Hon Movie Torrent in HD Quality. Calendar Girls 2015 Hindi Untouched 720p WEB-DL x264 AAC ESub-Hon DVD Print, 1080p, 720p and Bluray. If you facing any problem Downloading Calendar Girls 2015 Hindi Untouched 720p WEB-DL x264 AAC ESub-Hon Movie Torrent. Scroll Down to Get Download Link.

Alcatraz | Halston Sage | Telechargement Direct
  • Category : Movies
  • Type : Bollywood
  • Language : Hindi
  • Total size : 2.8 GB
  • Uploaded By : Hon3yHD-Hon3yHD

Calendar Girls 2015 Hindi Untouched 720p WEB-DL x264 AAC ESub-Hon3y


Format : Matroska
Format version : Version 4 / Version 2
File size : 2.82 GiB
Duration : 2 h 6 min
Overall bit rate : 3 190 kb/s
Movie name : Calendar Girls 2015-Hon3y
Encoded date : UTC 2017-10-11 15:05:42
Writing application : mkvmerge v14.0.0 ('Flow') 64bit
Writing library : libebml v1.3.4 + libmatroska v1.4.5

Video
ID : 1
Format : AVC
Format/Info : Advanced Video Codec
Format profile : [email protected]
Format settings, CABAC : Yes
Format settings, ReFrames : 4 frames
Codec ID : V_MPEG4/ISO/AVC
Duration : 2 h 6 min
Bit rate : 3 014 kb/s
Width : 1 280 pixels
Height : 720 pixels
Display aspect ratio : 16:9
Frame rate mode : Constant
Frame rate : 25.000 FPS


Audio
ID : 2
Format : AAC
Format/Info : Advanced Audio Codec
Format profile : LC
Codec ID : A_AAC
Duration : 2 h 6 min
Bit rate : 192 kb/s
Channel(s) : 2 channels
Channel positions : Front: L R
Sampling rate : 48.0 kHz
Frame rate : 46.875 FPS (1024 spf)
Compression mode : Lossy
Delay relative to video : -43 ms
Stream size : 176 MiB (6%)
Language : Hindi
Default : Yes
Forced : No

Text #1
ID : 3
Format : UTF-8
Codec ID : S_TEXT/UTF8
Codec ID/Info : UTF-8 Plain Text
Duration : 2 h 3 min
Bit rate : 69 b/s
Count of elements : 2022
Stream size : 63.1 KiB (0%)
Language : English
Default : Yes
Forced : No

Text #2
ID : 4
Format : UTF-8
Codec ID : S_TEXT/UTF8
Codec ID/Info : UTF-8 Plain Text
Duration : 2 h 1 min
Bit rate : 111 b/s
Count of elements : 2021
Stream size : 99.1 KiB (0%)
Language : Arabic
Default : No
Forced : No


http://hon3yhd.to


DOWNLOAD LINK

Calendar Girls 2015 Hindi Untouched 720p WEB-DL x264 AAC ESub-Hon Calendar Girls 2015 Hindi Untouched 720p WEB-DL x264 AAC ESub-Hon


Latest Top Searches of peoples:

Download Calendar Girls 2015 Hindi Untouched 720p WEB-DL x264 AAC ESub-Hon Full Movie Torrent HD Quality.

Torrent Calendar Girls 2015 Hindi Untouched 720p WEB-DL x264 AAC ESub-Hon Download

Download Free Calendar Girls 2015 Hindi Untouched 720p WEB-DL x264 AAC ESub-Hon Torrent

Download Calendar Girls 2015 Hindi Untouched 720p WEB-DL x264 AAC ESub-Hon Torrent - Kickass Torrents.

Calendar Girls 2015 Hindi Untouched 720p WEB-DL x264 AAC ESub-Hon Download Torrent - Extratorrent.

Calendar Girls 2015 Hindi Untouched 720p WEB-DL x264 AAC ESub-Hon Downlaod - torrentz.in

Download Calendar Girls 2015 Hindi Untouched 720p WEB-DL x264 AAC ESub-Hon Torrent - bitsnoop..

Torrent Calendar Girls 2015 Hindi Untouched 720p WEB-DL x264 AAC ESub-Hon Download - Nyaa.se

Calendar Girls 2015 Hindi Untouched 720p WEB-DL x264 AAC ESub-Hon HD Full Download Free 2017 - Welltorrent.com.



People also Search for:

  • • Download Calendar Girls 2015 Hindi Untouched 720p WEB-DL x264 AAC ESub-Hon Torrent 1080p
  • • Torrent Calendar Girls 2015 Hindi Untouched 720p WEB-DL x264 AAC ESub-Hon Download DVDRip
  • • Download Calendar Girls 2015 Hindi Untouched 720p WEB-DL x264 AAC ESub-Hon Torrent 720p
  • • Calendar Girls 2015 Hindi Untouched 720p WEB-DL x264 AAC ESub-Hon High Resolution Torrent Result
  • • Download Calendar Girls 2015 Hindi Untouched 720p WEB-DL x264 AAC ESub-Hon Bluray Torrent
  • • Xvid Torrent Calendar Girls 2015 Hindi Untouched 720p WEB-DL x264 AAC ESub-Hon Download
  • • Download Calendar Girls 2015 Hindi Untouched 720p WEB-DL x264 AAC ESub-Hon Torrent Full HD
  • • Torrent Calendar Girls 2015 Hindi Untouched 720p WEB-DL x264 AAC ESub-Hon HDRip Download
  • • Download Calendar Girls 2015 Hindi Untouched 720p WEB-DL x264 AAC ESub-Hon Torrent Multi Language
  • • Calendar Girls 2015 Hindi Untouched 720p WEB-DL x264 AAC ESub-Hon Download Multi-Subs Torrent


Tagged with:

Related Movies Torrents