Home / Annabelle 2 Creation 2017 MULTI 1080p BluRay x264-VENUE

Annabelle 2 Creation 2017 MULTI 1080p BluRay x264-VENUE

date added 1 week ago   
post views 37 views   
torrent id ID: 444760

Torrent Description: This is a New Way to Download The Movie Annabelle 2 Creation 2017 MULTI 1080p BluRay x264-VENUE Movie Torrent in HD Quality. Annabelle 2 Creation 2017 MULTI 1080p BluRay x264-VENUE DVD Print, 1080p, 720p and Bluray. If you facing any problem Downloading Annabelle 2 Creation 2017 MULTI 1080p BluRay x264-VENUE Movie Torrent. Scroll Down to Get Download Link.

Chief Keef And Gucci Mane-Glo17-WEB-2014-COURAGE | Welcome to the NHK | The Orville 1. Sezon 2. Bölüm
  • Category : Movies
  • Type : HD
  • Language : English
  • Total size : 7.7 GB
  • Uploaded By : showstopper-showstopper

Annabelle.2.Creation.2017.MULTI.1080p.BluRay.x264-VENUE

ImDb: http://www.imdb.com/title/tt7284596



Complete name : annabelle.2.creation.2017.multi.1080p.bluray.x264-venue.mkv
Format : Matroska
Format version : Version 2
File size : 7.65 GiB
Duration : 1 h 49 min
Overall bit rate : 9 987 kb/s
Encoded date : UTC 2017-10-12 00:10:22
Writing application : mkvmerge v10.0.0 ('To Drown In You') 64bit
Writing library : libebml v1.3.4 + libmatroska v1.4.5

Video
ID : 1
Format : AVC
Format/Info : Advanced Video Codec
Format profile : [email protected]
Format settings, CABAC : Yes
Format settings, ReFrames : 5 frames
Codec ID : V_MPEG4/ISO/AVC
Duration : 1 h 49 min
Bit rate : 8 706 kb/s
Width : 1 920 pixels
Height : 800 pixels
Display aspect ratio : 2.40:1
Frame rate mode : Constant
Frame rate : 23.976 (24000/1001) FPS
Color space : YUV
Chroma subsampling : 4:2:0
Bit depth : 8 bits
Scan type : Progressive
Bits/(Pixel*Frame) : 0.236
Stream size : 6.67 GiB (87%)
Writing library : x264 core 152 r2851 ba24899
Encoding settings : cabac=1 / ref=5 / deblock=1:0:0 / analyse=0x3:0x113 / me=umh / subme=7 / psy=1 / psy_rd=1.00:0.00 / mixed_ref=1 / me_range=16 / chroma_me=1 / trellis=1 / 8x8dct=1 / cqm=0 / deadzone=21,11 / fast_pskip=1 / chroma_qp_offset=-2 / threads=25 / lookahead_threads=4 / sliced_threads=0 / nr=0 / decimate=1 / interlaced=0 / bluray_compat=0 / constrained_intra=0 / bframes=3 / b_pyramid=2 / b_adapt=1 / b_bias=0 / direct=3 / weightb=1 / open_gop=0 / weightp=2 / keyint=240 / keyint_min=23 / scenecut=40 / intra_refresh=0 / rc_lookahead=50 / rc=2pass / mbtree=1 / bitrate=8706 / ratetol=1.0 / qcomp=0.60 / qpmin=0 / qpmax=69 / qpstep=4 / cplxblur=20.0 / qblur=0.5 / vbv_maxrate=62500 / vbv_bufsize=78125 / nal_hrd=none / filler=0 / ip_ratio=1.40 / aq=1:1.00
Default : Yes
Forced : No

Audio #1
ID : 2
Format : AC-3
Format/Info : Audio Coding 3
Format settings, Endianness : Big
Codec ID : A_AC3
Duration : 1 h 49 min
Bit rate mode : Constant
Bit rate : 640 kb/s
Channel(s) : 6 channels
Channel positions : Front: L C R, Side: L R, LFE
Sampling rate : 48.0 kHz
Frame rate : 31.250 FPS (1536 spf)
Bit depth : 16 bits
Compression mode : Lossy
Stream size : 502 MiB (6%)
Language : French
Service kind : Complete Main
Default : Yes
Forced : No

Audio #2
ID : 3
Format : AC-3
Format/Info : Audio Coding 3
Format settings, Endianness : Big
Codec ID : A_AC3
Duration : 1 h 49 min
Bit rate mode : Constant
Bit rate : 640 kb/s
Channel(s) : 6 channels
Channel positions : Front: L C R, Side: L R, LFE
Sampling rate : 48.0 kHz
Frame rate : 31.250 FPS (1536 spf)
Bit depth : 16 bits
Compression mode : Lossy
Stream size : 502 MiB (6%)
Language : English
Service kind : Complete Main
Default : No
Forced : No

Text #1
ID : 4
Format : UTF-8
Codec ID : S_TEXT/UTF8
Codec ID/Info : UTF-8 Plain Text
Duration : 1 h 48 min
Bit rate : 0 b/s
Count of elements : 10
Stream size : 251 Bytes (0%)
Language : French
Default : Yes
Forced : Yes

Text #2
ID : 5
Format : UTF-8
Codec ID : S_TEXT/UTF8
Codec ID/Info : UTF-8 Plain Text
Duration : 1 h 48 min
Bit rate : 20 b/s
Count of elements : 668
Stream size : 15.9 KiB (0%)
Language : French
Default : No
Forced : No

Menu
00:00:00.000 : en:00:00:00.000
00:11:25.351 : en:00:11:25.351
00:20:35.067 : en:00:20:35.067
00:30:33.290 : en:00:30:33.290
00:42:03.604 : en:00:42:03.604
00:52:39.239 : en:00:52:39.239
01:03:12.497 : en:01:03:12.497
01:13:14.682 : en:01:13:14.682
01:23:55.614 : en:01:23:55.614
01:33:19.302 : en:01:33:19.302
01:43:27.618 : en:01:43:27.618






Click To View Screenshot

Click To View Screenshot

Click To View Screenshot

DOWNLOAD LINK

Annabelle 2 Creation 2017 MULTI 1080p BluRay x264-VENUE Annabelle 2 Creation 2017 MULTI 1080p BluRay x264-VENUE


Latest Top Searches of peoples:

Download Annabelle 2 Creation 2017 MULTI 1080p BluRay x264-VENUE Full Movie Torrent HD Quality.

Torrent Annabelle 2 Creation 2017 MULTI 1080p BluRay x264-VENUE Download

Download Free Annabelle 2 Creation 2017 MULTI 1080p BluRay x264-VENUE Torrent

Download Annabelle 2 Creation 2017 MULTI 1080p BluRay x264-VENUE Torrent - Kickass Torrents.

Annabelle 2 Creation 2017 MULTI 1080p BluRay x264-VENUE Download Torrent - Extratorrent.

Annabelle 2 Creation 2017 MULTI 1080p BluRay x264-VENUE Downlaod - torrentz.in

Download Annabelle 2 Creation 2017 MULTI 1080p BluRay x264-VENUE Torrent - bitsnoop..

Torrent Annabelle 2 Creation 2017 MULTI 1080p BluRay x264-VENUE Download - Nyaa.se

Annabelle 2 Creation 2017 MULTI 1080p BluRay x264-VENUE HD Full Download Free 2017 - Welltorrent.com.



People also Search for:

  • • Download Annabelle 2 Creation 2017 MULTI 1080p BluRay x264-VENUE Torrent 1080p
  • • Torrent Annabelle 2 Creation 2017 MULTI 1080p BluRay x264-VENUE Download DVDRip
  • • Download Annabelle 2 Creation 2017 MULTI 1080p BluRay x264-VENUE Torrent 720p
  • • Annabelle 2 Creation 2017 MULTI 1080p BluRay x264-VENUE High Resolution Torrent Result
  • • Download Annabelle 2 Creation 2017 MULTI 1080p BluRay x264-VENUE Bluray Torrent
  • • Xvid Torrent Annabelle 2 Creation 2017 MULTI 1080p BluRay x264-VENUE Download
  • • Download Annabelle 2 Creation 2017 MULTI 1080p BluRay x264-VENUE Torrent Full HD
  • • Torrent Annabelle 2 Creation 2017 MULTI 1080p BluRay x264-VENUE HDRip Download
  • • Download Annabelle 2 Creation 2017 MULTI 1080p BluRay x264-VENUE Torrent Multi Language
  • • Annabelle 2 Creation 2017 MULTI 1080p BluRay x264-VENUE Download Multi-Subs Torrent


Tagged with:

Related Movies Torrents