Home / Annabelle 2 Creation 2017 720p BluRay x264 AAC 5 1 ESub [Moviezwo

Annabelle 2 Creation 2017 720p BluRay x264 AAC 5 1 ESub [Moviezwo

date added 1 week ago   
post views 19 views   
torrent id ID: 444796

Torrent Description: This is a New Way to Download The Movie Annabelle 2 Creation 2017 720p BluRay x264 AAC 5 1 ESub [Moviezwo Movie Torrent in HD Quality. Annabelle 2 Creation 2017 720p BluRay x264 AAC 5 1 ESub [Moviezwo DVD Print, 1080p, 720p and Bluray. If you facing any problem Downloading Annabelle 2 Creation 2017 720p BluRay x264 AAC 5 1 ESub [Moviezwo Movie Torrent. Scroll Down to Get Download Link.

Kim Richards | Padre De Familia HDTV 720p AC3 5.1 | Mark Holton
  • Category : Movies
  • Type : HD
  • Language : English
  • Total size : 1.1 GB
  • Uploaded By : moviezworldz-moviezworldz


General
Format : Matroska
Format version : Version 4 / Version 2
File size : 1.06 GiB
Duration : 1 h 49 min
Overall bit rate : 1 385 kb/s

Video
ID : 1
Format : AVC
Format/Info : Advanced Video Codec
Format profile : [email protected]
Format settings : CABAC / 4 Ref Frames
Format settings, CABAC : Yes
Format settings, RefFrames : 4 frames
Codec ID : V_MPEG4/ISO/AVC
Duration : 1 h 49 min
Bit rate : 1 200 kb/s
Width : 1 280 pixels
Height : 536 pixels
Display aspect ratio : 2.40:1
Frame rate mode : Constant
Frame rate : 23.976 (23976/1000) FPS
Color space : YUV
Chroma subsampling : 4:2:0
Bit depth : 8 bits
Scan type : Progressive
Bits/(Pixel*Frame) : 0.073
Stream size : 935 MiB (86%)
Writing library : x264 core 148 r2643 5c65704
Language : English
Default : Yes
Forced : No

Audio
ID : 2
Format : AAC
Format/Info : Advanced Audio Codec
Format profile : LC
Codec ID : A_AAC-2
Duration : 1 h 49 min
Bit rate : 192 kb/s
Channel(s) : 6 channels
Channel positions : Front: L C R, Side: L R, LFE
Sampling rate : 48.0 kHz
Frame rate : 46.875 FPS (1024 SPF)
Compression mode : Lossy
Stream size : 151 MiB (14%)
Language : English
Default : Yes
Forced : No

Text
ID : 3
Format : UTF-8
Codec ID : S_TEXT/UTF8
Codec ID/Info : UTF-8 Plain Text
Duration : 1 h 40 min
Bit rate : 25 b/s
Count of elements : 715
Stream size : 19.0 KiB (0%)
Language : English
Default : Yes
Forced : No

Menu
00:00:00.000 : en:00:00:00.000 / en:00:00:00.000
00:11:25.351 : en:00:11:25.351 / en:00:11:25.351
00:20:35.067 : en:00:20:35.067 / en:00:20:35.067
00:30:33.290 : en:00:30:33.290 / en:00:30:33.290
00:42:03.604 : en:00:42:03.604 / en:00:42:03.604
00:52:39.239 : en:00:52:39.239 / en:00:52:39.239
01:03:12.497 : en:01:03:12.497 / en:01:03:12.497
01:13:14.682 : en:01:13:14.682 / en:01:13:14.682
01:23:55.614 : en:01:23:55.614 / en:01:23:55.614
01:33:19.302 : en:01:33:19.302 / en:01:33:19.302
01:43:27.618 : en:01:43:27.618 / en:01:43:27.618






DOWNLOAD LINK

Annabelle 2 Creation 2017 720p BluRay x264 AAC 5 1 ESub [Moviezwo Annabelle 2 Creation 2017 720p BluRay x264 AAC 5 1 ESub [Moviezwo


Latest Top Searches of peoples:

Download Annabelle 2 Creation 2017 720p BluRay x264 AAC 5 1 ESub [Moviezwo Full Movie Torrent HD Quality.

Torrent Annabelle 2 Creation 2017 720p BluRay x264 AAC 5 1 ESub [Moviezwo Download

Download Free Annabelle 2 Creation 2017 720p BluRay x264 AAC 5 1 ESub [Moviezwo Torrent

Download Annabelle 2 Creation 2017 720p BluRay x264 AAC 5 1 ESub [Moviezwo Torrent - Kickass Torrents.

Annabelle 2 Creation 2017 720p BluRay x264 AAC 5 1 ESub [Moviezwo Download Torrent - Extratorrent.

Annabelle 2 Creation 2017 720p BluRay x264 AAC 5 1 ESub [Moviezwo Downlaod - torrentz.in

Download Annabelle 2 Creation 2017 720p BluRay x264 AAC 5 1 ESub [Moviezwo Torrent - bitsnoop..

Torrent Annabelle 2 Creation 2017 720p BluRay x264 AAC 5 1 ESub [Moviezwo Download - Nyaa.se

Annabelle 2 Creation 2017 720p BluRay x264 AAC 5 1 ESub [Moviezwo HD Full Download Free 2017 - Welltorrent.com.



People also Search for:

  • • Download Annabelle 2 Creation 2017 720p BluRay x264 AAC 5 1 ESub [Moviezwo Torrent 1080p
  • • Torrent Annabelle 2 Creation 2017 720p BluRay x264 AAC 5 1 ESub [Moviezwo Download DVDRip
  • • Download Annabelle 2 Creation 2017 720p BluRay x264 AAC 5 1 ESub [Moviezwo Torrent 720p
  • • Annabelle 2 Creation 2017 720p BluRay x264 AAC 5 1 ESub [Moviezwo High Resolution Torrent Result
  • • Download Annabelle 2 Creation 2017 720p BluRay x264 AAC 5 1 ESub [Moviezwo Bluray Torrent
  • • Xvid Torrent Annabelle 2 Creation 2017 720p BluRay x264 AAC 5 1 ESub [Moviezwo Download
  • • Download Annabelle 2 Creation 2017 720p BluRay x264 AAC 5 1 ESub [Moviezwo Torrent Full HD
  • • Torrent Annabelle 2 Creation 2017 720p BluRay x264 AAC 5 1 ESub [Moviezwo HDRip Download
  • • Download Annabelle 2 Creation 2017 720p BluRay x264 AAC 5 1 ESub [Moviezwo Torrent Multi Language
  • • Annabelle 2 Creation 2017 720p BluRay x264 AAC 5 1 ESub [Moviezwo Download Multi-Subs Torrent


Tagged with:

Related Movies Torrents